• Search
  • Member List
  • Help
  • Random Thread

  • Music: Guitar Thread
    #41
    Dave Evans - Stagefright



    my friend the sailor, Dave Evans....

    Not the famous rocker, but nevertheless a skilled guitarist (and a sailor also in his many jobs). This haunting tune was one of my favourite when I practised... and I assure you, it's far easier than you would suspect...

    If you're interested in the guitar pro score I tabbed for this tune... take a look here: Smile
    (This post was last modified: 09-18-2012, 04:22 AM by n0b0dyh0me.)

    Born to Be Wild
    Reply
    #42
    Jorma Kaukonen - Genesis


    Born to Be Wild
    Reply
    #43
    I have always loved this simple tune played by Jake E. Lee , especially the haunting intro with its weird tonal intervals resolving then in a mixolydian arpeggio before the main theme...

    Jake E. Lee - (Ozzy Osbourne) - Killer of Giants

    (This post was last modified: 07-30-2012, 01:45 PM by n0b0dyh0me.)

    Born to Be Wild
    Reply
    #44
    [Image: 162022.jpg]

    Isato Nakagawa - Ramon No Ki


    Born to Be Wild
    Reply
    #45
    Ben Harper - Forgiven


    Born to Be Wild
    Reply
    #46
    Michael Hedges - Silent Anticipations



    The tune starts at 1.35

    Born to Be Wild
    Reply
    #47
    Stevie Ray Vaughan - Texas Flood


    Born to Be Wild
    Reply
    #48
    AC/DC - Thunderstruck


    Born to Be Wild
    Reply
    #49
    Rush - Fly By Night

    [Image: fahcdaadm.jpg]

    Here's the second 1975 album Fly by Night by Rush
    Enjoy Smile

    Rush - Fly By Night



    00'00" 01 - Anthem
    04'27" 02 - Best I Can
    07'55" 03 - Beneath, Between & Behind
    11'00" 04 - By-Tor & The Snow Dog
    19'39" 05 - Fly By Night
    23'04" 06 - Making Memories
    26'09" 07 - Rivendell
    31'08" 08 - In The End


      Show
    if somebody wants to split the single tracks this is the cue sheet to use.
    For a detailed explanation about splitting, refer

    Code:
    TITLE "Fly By Night"
    FILE "Rush - Fly By Night.mp3" WAVE
      TRACK 00 AUDIO
        TITLE "01 - Anthem"
        INDEX 01 00:00:000
      TRACK 01 AUDIO
        TITLE "02 - Best I Can"
        INDEX 01 04:27:000
      TRACK 02 AUDIO
        TITLE "03 - Beneath, Between & Behind"
        INDEX 01 07:55:000
      TRACK 03 AUDIO
        TITLE "04 - By-Tor & The Snow Dog"
        INDEX 01 11:00:000
      TRACK 04 AUDIO
        TITLE "05 - Fly By Night"
        INDEX 01 19:39:000
      TRACK 05 AUDIO
        TITLE "06 - Making Memories"
        INDEX 01 23:04:000
      TRACK 06 AUDIO
        TITLE "07 - Rivendell"
        INDEX 01 26:09:000
      TRACK 07 AUDIO
        TITLE "08 - In The End"
        INDEX 01 31:08:000


    (as usual if you experience problems with the streaming just retry later... Smile)

    Born to Be Wild
    Reply
    #50
    Kazumi Watanabe -- Loosey Goosey



    I was building a discography of Larry Coryell when I stumbled on this mate of him... Hats Off

    Born to Be Wild
    Reply





    Users browsing this thread: 1 Guest(s)
    Rant Central
    Speak Your Mind